<?xml version="1.0" standalone="no"?>
<!DOCTYPE svg PUBLIC "-//W3C//DTD SVG 1.1//EN" "http://www.w3.org/Graphics/SVG/1.1/DTD/svg11.dtd">
<svg xmlns="http://www.w3.org/2000/svg">
<defs >
<font id="WorkSans" horiz-adv-x="573" ><font-face
    font-family="Work Sans"
    units-per-em="1000"
    panose-1="0 0 5 0 0 0 0 0 0 0"
    ascent="930"
    descent="-243"
    alphabetic="0" />
<glyph unicode=" " glyph-name="space" horiz-adv-x="341" />
<glyph unicode="!" glyph-name="exclam" horiz-adv-x="272" d="M178 374L166 208H106L94 374V660H178V374ZM165 120T183 102T201 55Q201 26 183 8T136 -10Q107 -10 89 8T71 55Q71 84 89 102T136 120Q165 120 183 102Z" />
<glyph unicode="&quot;" glyph-name="quotedbl" horiz-adv-x="403" d="M313 443H251V690H339L313 443ZM144 443H82V690H170L144 443Z" />
<glyph unicode="#" glyph-name="numbersign" horiz-adv-x="640" d="M485 417L456 248H575V187H446L415 0H347L378 187H212L181 0H113L144 187H20V248H154L183 417H64V478H193L223 660H291L261 478H427L457 660H525L495 478H619V417H485ZM417 417H251L222 248H388L417
417Z" />
<glyph unicode="$" glyph-name="dollar" horiz-adv-x="615" d="M279 1Q192 9 133 52T47 171L121 209Q132 155 176 118T279 69V301Q214 315 172 331T101 381T73 469Q73 519 98 560T169 627T279 659V760H348V658Q422 652 470 619T554 520L489 469Q464 527 432 555T348
590V355Q413 341 455 325T526 274T555 183Q555 106 499 58T348 1V-100H279V1ZM279 591Q215 585 182 555T149 475Q149 430 182 407T279 369V591ZM480 78T480 177Q480 223 446 247T348 286V67Q480 78 480 177Z" />
<glyph unicode="%" glyph-name="percent" horiz-adv-x="856" d="M272 670T315 621T358 488Q358 405 315 356T199 306Q126 306 83 355T40 488Q40 571 83 620T199 670Q272 670 315 621ZM600 660H676L256 0H180L600 660ZM157 607T134 576T111 488Q111 431 134 400T199
369Q241 369 264 400T287 488Q287 545 264 576T199 607Q157 607 134 576ZM730 354T773 305T816 172Q816 89 773 40T657 -10Q584 -10 541 39T498 172Q498 255 541 304T657 354Q730 354 773 305ZM615 291T592 260T569 172Q569 115 592 84T657 53Q699 53 722 84T745
172Q745 229 722 260T657 291Q615 291 592 260Z" />
<glyph unicode="&amp;" glyph-name="ampersand" horiz-adv-x="623" d="M538 77T564 64T627 50L607 -10Q567 -10 535 5T456 67Q417 30 367 10T258 -10Q197 -10 149 12T75 73T48 161Q48 223 84 271T206 365Q163 421 147 454T130 524Q130 561 148 594T201 649T285
670Q350 670 394 637T439 534Q439 477 413 435T309 348Q326 325 375 265L411 220L455 167Q497 236 497 328Q497 346 496 355L560 347L561 323Q561 267 545 215T499 118Q538 77 564 64ZM246 602T226 580T205 525Q205 499 217 475T270 397Q331 430 349 461T368 532Q368
602 284 602Q246 602 226 580ZM300 55T340 70T412 114Q378 151 321 222L247 313Q174 271 149 239T123 167Q123 119 162 87T255 55Q300 55 340 70Z" />
<glyph unicode="&apos;" glyph-name="quotesingle" horiz-adv-x="234" d="M144 443H82V690H170L144 443Z" />
<glyph unicode="(" glyph-name="parenleft" horiz-adv-x="350" d="M321 705Q223 616 183 518T143 281Q143 142 183 44T321 -143L275 -189Q169 -97 115 21T61 281Q61 422 115 540T275 751L321 705Z" />
<glyph unicode=")" glyph-name="parenright" horiz-adv-x="350" d="M181 659T235 541T289 281Q289 140 235 22T75 -189L29 -143Q127 -54 167 44T207 281Q207 420 167 518T29 705L75 751Q181 659 235 541Z" />
<glyph unicode="*" glyph-name="asterisk" horiz-adv-x="572" d="M380 422L450 324L398 286L326 383L286 456L246 383L174 286L122 324L192 422L249 483L167 499L53 537L72 598L188 562L263 527L253 609V730H319V609L309 527L384 562L500 598L519 537L405 499L323
483L380 422Z" />
<glyph unicode="+" glyph-name="plus" horiz-adv-x="604" d="M545 279H340V68H265V279H59V354H265V564H340V354H545V279Z" />
<glyph unicode="," glyph-name="comma" horiz-adv-x="266" d="M168 120T188 93T208 23Q208 -30 181 -75T99 -146L57 -107Q96 -94 122 -66T155 -5L151 -3Q142 -10 123 -10Q102 -10 85 6T68 53Q68 80 87 100T133 120Q168 120 188 93Z" />
<glyph unicode="-" glyph-name="hyphen" horiz-adv-x="510" d="M420 220H90V303H420V220Z" />
<glyph unicode="." glyph-name="period" horiz-adv-x="266" d="M162 120T180 102T198 55Q198 26 180 8T133 -10Q104 -10 86 8T68 55Q68 84 86 102T133 120Q162 120 180 102Z" />
<glyph unicode="/" glyph-name="slash" horiz-adv-x="438" d="M103 -70H28L334 730H409L103 -70Z" />
<glyph unicode="0" glyph-name="zero" horiz-adv-x="622" d="M191 -10T128 77T65 330Q65 496 128 583T311 670Q431 670 494 583T557 330Q557 164 494 77T311 -10Q191 -10 128 77ZM390 62T432 130T474 330Q474 461 432 529T311 598Q232 598 190 530T148 330Q148
199 190 131T311 62Q390 62 432 130Z" />
<glyph unicode="1" glyph-name="one" horiz-adv-x="409" d="M307 660V0H227V484Q227 505 229 561Q195 528 150 504T58 468L37 541Q61 544 102 563T181 609T237 660H307Z" />
<glyph unicode="2" glyph-name="two" horiz-adv-x="583" d="M74 65Q211 166 284 231T388 350T420 463Q420 522 382 558T280 595Q213 595 172 551T123 432L53 474Q66 563 125 616T283 670Q349 670 399 644T477 571T504 463Q504 399 474 340T374 216T188 73V72Q254
75 287 75H518V0H74V65Z" />
<glyph unicode="3" glyph-name="three" horiz-adv-x="583" d="M356 670T402 647T473 584T497 498Q497 452 480 415T435 357T373 335V333Q436 333 474 288T512 177Q512 124 484 81T402 14T280 -10Q115 -10 52 148L126 187Q146 126 181 96T286 65Q353 65 391 98T429
185Q429 246 393 270T277 295H251V370H277Q414 370 414 482Q414 538 383 566T292 595Q234 595 200 569T152 494L77 529Q101 594 158 632T291 670Q356 670 402 647Z" />
<glyph unicode="4" glyph-name="four" horiz-adv-x="611" d="M563 173H446V0H366V173H44V232L345 660H446V242H563V173ZM129 242H366V489L370 595H368Q343 544 302 485L129 242Z" />
<glyph unicode="5" glyph-name="five" horiz-adv-x="582" d="M405 423T462 365T519 210Q519 107 459 49T293 -10Q204 -10 149 28T63 141L141 182Q158 124 191 95T290 65Q358 65 397 102T436 204Q436 274 400 311T296 348Q193 348 149 284H78L118 660H489V585H186L160
377L159 368H160Q213 423 311 423Q405 423 462 365Z" />
<glyph unicode="6" glyph-name="six" horiz-adv-x="618" d="M408 670T458 637T539 531L465 496Q433 595 324 595Q272 595 232 558T169 457T146 315V297H150Q165 356 218 387T331 418Q432 418 492 360T553 204Q553 106 492 48T326 -10Q245 -10 188 33T101 153T71
330Q71 438 104 514T196 630T329 670Q408 670 458 637ZM261 341T221 303T181 205Q181 143 220 105T325 67Q393 67 431 103T469 205Q469 268 431 304T325 341Q261 341 221 303Z" />
<glyph unicode="7" glyph-name="seven" horiz-adv-x="561" d="M526 660V585Q403 456 347 313T290 0H208Q208 162 266 311T439 585H40V660H526Z" />
<glyph unicode="8" glyph-name="eight" horiz-adv-x="616" d="M404 669T461 623T518 496Q518 445 494 407T425 348V347Q483 325 515 282T548 178Q548 121 519 79T435 13T308 -10Q236 -10 182 13T98 78T68 178Q68 238 100 282T192 347V348Q148 367 123 406T98 496Q98
576 155 622T308 669Q404 669 461 623ZM249 594T215 566T181 488Q181 440 216 412T308 383Q365 383 400 411T435 488Q435 538 401 566T308 594Q249 594 215 566ZM381 65T423 97T465 186Q465 243 423 275T308 308Q237 308 194 275T151 186Q151 130 193 98T308 65Q381
65 423 97Z" />
<glyph unicode="9" glyph-name="nine" horiz-adv-x="623" d="M378 670T435 627T522 508T552 330Q552 164 487 77T298 -10Q209 -10 154 27T69 139L148 181Q166 122 197 94T297 65Q396 65 437 140T479 357V366H475Q461 300 409 271T291 242Q191 242 131 300T70 456Q70
554 131 612T297 670Q378 670 435 627ZM230 593T192 557T154 455Q154 392 192 356T298 319Q362 319 402 357T442 455Q442 517 403 555T298 593Q230 593 192 557Z" />
<glyph unicode=":" glyph-name="colon" horiz-adv-x="296" d="M177 510T195 492T213 445Q213 416 195 398T148 380Q119 380 101 398T83 445Q83 474 101 492T148 510Q177 510 195 492ZM177 120T195 102T213 55Q213 26 195 8T148 -10Q119 -10 101 8T83 55Q83 84
101 102T148 120Q177 120 195 102Z" />
<glyph unicode=";" glyph-name="semicolon" horiz-adv-x="296" d="M125 380T107 398T89 445Q89 474 107 492T154 510Q183 510 201 492T219 445Q219 416 201 398T154 380Q125 380 107 398ZM185 120T205 93T225 23Q225 -30 198 -75T116 -146L74 -107Q113 -94 139
-66T172 -5L168 -3Q159 -10 140 -10Q119 -10 102 6T85 53Q85 80 104 100T150 120Q185 120 205 93Z" />
<glyph unicode="&lt;" glyph-name="less" horiz-adv-x="604" d="M547 488L135 300L547 111V28L71 253V346L547 571V488Z" />
<glyph unicode="=" glyph-name="equal" horiz-adv-x="604" d="M540 366H64V441H540V366ZM540 166H64V241H540V166Z" />
<glyph unicode="&gt;" glyph-name="greater" horiz-adv-x="604" d="M533 346V253L57 28V111L469 300L57 488V571L533 346Z" />
<glyph unicode="?" glyph-name="question" horiz-adv-x="542" d="M370 670T431 624T492 500Q492 417 440 371T304 315V208H221V358Q322 373 365 403T408 490Q408 539 372 567T267 595Q201 595 160 559T110 459L39 500Q56 578 118 624T273 670Q370 670 431 624ZM290
120T308 102T326 55Q326 26 308 8T261 -10Q232 -10 214 8T196 55Q196 84 214 102T261 120Q290 120 308 102Z" />
<glyph unicode="@" glyph-name="at" horiz-adv-x="985" d="M642 660T734 607T870 464T915 260Q915 179 892 119T828 27T731 -5Q680 -5 652 21T615 87Q588 46 543 23T438 0Q391 0 352 24T290 95T267 203Q267 283 300 342T386 433T498 465Q614 465 648 378L668 459H720L681
148Q680 140 680 125Q680 51 743 51Q797 51 825 104T853 260Q853 361 814 437T697 557T507 601Q392 601 308 555T178 423T133 223Q133 114 178 33T304 -92T484 -136Q562 -136 609 -119T700 -71L735 -117Q681 -155 627 -175T484 -195Q359 -195 265 -143T118 4T66
223Q66 351 120 450T275 605T507 660Q642 660 734 607ZM429 406T384 353T339 207Q339 138 371 99T462 60Q522 60 567 98T621 206L627 255Q629 275 629 285Q629 341 600 373T506 406Q429 406 384 353Z" />
<glyph unicode="A" glyph-name="A" horiz-adv-x="660" d="M479 183H180L110 0H26L283 660H378L634 0H549L479 183ZM450 258L361 492L330 584H328L299 495L209 258H450Z" />
<glyph unicode="B" glyph-name="B" horiz-adv-x="653" d="M108 660H343Q457 660 512 613T568 478Q568 426 539 386T457 336V335Q515 324 550 282T585 185Q585 100 521 50T342 0H108V660ZM344 370Q415 370 449 396T484 478Q484 585 344 585H188V370H344ZM361 75Q431
75 466 103T501 185Q501 238 466 266T361 295H188V75H361Z" />
<glyph unicode="C" glyph-name="C" horiz-adv-x="686" d="M609 85T538 38T374 -10Q281 -10 212 31T106 149T68 330Q68 433 105 510T212 628T372 670Q467 670 531 631T628 516L549 479Q527 537 485 566T378 595Q310 595 259 564T180 472T152 330Q152 206 211 136T374
65Q441 65 490 99T560 199L640 169Q609 85 538 38Z" />
<glyph unicode="D" glyph-name="D" horiz-adv-x="721" d="M477 660T565 574T653 330Q653 172 565 86T321 0H108V660H321Q477 660 565 574ZM442 75T505 142T569 330Q569 450 506 517T329 585H188V75H329Q442 75 505 142Z" />
<glyph unicode="E" glyph-name="E" horiz-adv-x="638" d="M586 75V0H108V660H571V585H188V372H486V297H188V75H586Z" />
<glyph unicode="F" glyph-name="F" horiz-adv-x="610" d="M188 585V372H486V297H188V0H108V660H570V585H188Z" />
<glyph unicode="G" glyph-name="G" horiz-adv-x="724" d="M645 333V0H585L582 89Q553 41 501 16T374 -10Q281 -10 212 31T106 149T68 330Q68 433 106 510T214 628T376 670Q474 670 537 633T640 519L567 479Q545 535 496 565T376 595Q309 595 259 563T180 472T152
330Q152 204 210 135T377 65Q463 65 517 109T572 235V258H362V333H645Z" />
<glyph unicode="H" glyph-name="H" horiz-adv-x="734" d="M626 660V0H546V297H188V0H108V660H188V372H546V660H626Z" />
<glyph unicode="I" glyph-name="I" horiz-adv-x="296" d="M188 0H108V660H188V0Z" />
<glyph unicode="J" glyph-name="J" horiz-adv-x="566" d="M465 226Q465 115 406 53T241 -10Q146 -10 94 36T42 165Q42 194 47 218L121 233Q117 199 117 185Q117 124 146 95T238 65Q320 65 352 109T385 246V660H465V226Z" />
<glyph unicode="K" glyph-name="K" horiz-adv-x="656" d="M306 332L188 212V0H108V660H188V320L520 660H625L362 391L628 0H532L306 332Z" />
<glyph unicode="L" glyph-name="L" horiz-adv-x="598" d="M566 75V0H108V660H188V75H566Z" />
<glyph unicode="M" glyph-name="M" horiz-adv-x="854" d="M746 0H670V415L679 589H678L461 0H393L176 589H175L184 415V0H108V660H231L376 259L426 94H428L479 258L623 660H746V0Z" />
<glyph unicode="N" glyph-name="N" horiz-adv-x="734" d="M626 0H527L251 442L181 572H180L184 466V0H108V660H207L482 220L553 88H554L550 194V660H626V0Z" />
<glyph unicode="O" glyph-name="O" horiz-adv-x="748" d="M467 670T536 629T642 511T680 330Q680 226 643 150T536 32T374 -10Q281 -10 212 31T106 149T68 330Q68 434 105 510T212 628T374 670Q467 670 536 629ZM271 595T212 525T152 330Q152 206 211 136T374
65Q477 65 536 135T596 330Q596 454 537 524T374 595Q271 595 212 525Z" />
<glyph unicode="P" glyph-name="P" horiz-adv-x="610" d="M441 660T502 606T563 459Q563 367 502 313T341 258H188V0H108V660H341Q441 660 502 606ZM406 333T442 364T479 459Q479 522 443 553T329 585H188V333H329Q406 333 442 364Z" />
<glyph unicode="Q" glyph-name="Q" horiz-adv-x="748" d="M573 -114T604 -104T654 -77L680 -151Q657 -171 615 -183T534 -195Q452 -195 398 -152T337 -8Q254 0 194 43T101 159T68 330Q68 434 105 510T212 628T374 670Q467 670 536 629T642 511T680 330Q680 233
647 160T553 43T409 -8Q414 -70 447 -92T536 -114Q573 -114 604 -104ZM152 206T211 136T374 65Q477 65 536 135T596 330Q596 454 537 524T374 595Q271 595 212 525T152 330Q152 206 211 136Z" />
<glyph unicode="R" glyph-name="R" horiz-adv-x="665" d="M346 274H188V0H108V660H358Q459 660 520 608T581 467Q581 397 542 349T435 283L621 0H526L346 274ZM188 349H357Q497 349 497 467Q497 585 357 585H188V349Z" />
<glyph unicode="S" glyph-name="S" horiz-adv-x="641" d="M497 670T575 530L506 474Q476 540 435 567T321 595Q245 595 202 564T158 483Q158 451 175 430T231 394T341 366Q472 344 526 300T581 178Q581 122 550 80T460 14T326 -10Q226 -10 156 29T48 133L117 189Q144
130 196 98T328 65Q406 65 452 93T498 174Q498 218 458 244T316 288Q184 311 129 354T74 474Q74 527 104 572T190 643T320 670Q497 670 575 530Z" />
<glyph unicode="T" glyph-name="T" horiz-adv-x="604" d="M572 585H342V0H262V585H32V660H572V585Z" />
<glyph unicode="U" glyph-name="U" horiz-adv-x="720" d="M619 246Q619 119 553 55T360 -10Q234 -10 168 55T101 246V660H181V266Q181 162 224 114T360 65Q452 65 495 113T539 266V660H619V246Z" />
<glyph unicode="V" glyph-name="V" horiz-adv-x="648" d="M370 0H279L28 660H114L282 204L324 73L366 203L534 660H620L370 0Z" />
<glyph unicode="W" glyph-name="W" horiz-adv-x="961" d="M330 0H231L36 660H122L281 63L437 660H528L684 61L844 660H925L731 0H632L515 428L481 577H480L446 428L330 0Z" />
<glyph unicode="X" glyph-name="X" horiz-adv-x="601" d="M476 0L297 273L118 0H25L256 336L45 660H140L308 402L477 660H562L349 340L569 0H476Z" />
<glyph unicode="Y" glyph-name="Y" horiz-adv-x="572" d="M326 258V0H246V258L10 660H105L286 340L467 660H562L326 258Z" />
<glyph unicode="Z" glyph-name="Z" horiz-adv-x="630" d="M575 75V0H56V71L467 585H66V660H562V589L151 75H575Z" />
<glyph unicode="[" glyph-name="bracketleft" horiz-adv-x="348" d="M162 660V-98H315V-168H87V730H315V660H162Z" />
<glyph unicode="\" glyph-name="backslash" horiz-adv-x="438" d="M104 730L410 -70H335L29 730H104Z" />
<glyph unicode="]" glyph-name="bracketright" horiz-adv-x="348" d="M261 -168H33V-98H186V660H33V730H261V-168Z" />
<glyph unicode="^" glyph-name="asciicircum" horiz-adv-x="560" d="M452 355L280 662L108 355H27L242 730H318L533 355H452Z" />
<glyph unicode="_" glyph-name="underscore" horiz-adv-x="539" d="M539 -172H0V-97H539V-172Z" />
<glyph unicode="`" glyph-name="grave" horiz-adv-x="500" d="M292 583H227L129 750H216L292 583Z" />
<glyph unicode="a" glyph-name="a" horiz-adv-x="566" d="M523 58T543 63L538 0Q510 -10 478 -10Q439 -10 417 7T388 64Q365 29 321 10T227 -10Q153 -10 105 24T57 124Q57 181 107 222T252 280L385 302V330Q385 380 354 410T268 440Q218 440 182 416T125 345L66
388Q86 444 140 477T268 510Q357 510 411 467T465 340V94Q465 76 474 67T503 58Q523 58 543 63ZM294 60T339 90T385 168V237L273 216Q206 204 173 182T140 124Q140 93 164 77T231 60Q294 60 339 90Z" />
<glyph unicode="b" glyph-name="b" horiz-adv-x="630" d="M444 510T505 441T567 250Q567 129 506 60T339 -10Q281 -10 236 16T168 87L163 0H93V730H173V422Q197 462 240 486T339 510Q444 510 505 441ZM403 60T445 111T487 250Q487 337 445 388T330 440Q258 440
216 390T173 256V244Q173 160 215 110T330 60Q403 60 445 111Z" />
<glyph unicode="c" glyph-name="c" horiz-adv-x="564" d="M379 510T430 476T511 377L435 341Q403 440 302 440Q227 440 185 390T142 250Q142 161 184 111T302 60Q360 60 395 86T442 163L516 137Q490 67 436 29T304 -10Q191 -10 127 59T62 250Q62 372 126 441T304
510Q379 510 430 476Z" />
<glyph unicode="d" glyph-name="d" horiz-adv-x="630" d="M537 730V0H467L462 87Q440 43 395 17T291 -10Q186 -10 125 59T63 250Q63 371 124 440T291 510Q346 510 389 486T457 422V730H537ZM372 60T414 110T457 244V256Q457 340 415 390T300 440Q227 440 185 389T143
250Q143 163 185 112T300 60Q372 60 414 110Z" />
<glyph unicode="e" glyph-name="e" horiz-adv-x="581" d="M522 248T518 220H141Q148 144 191 102T304 60Q359 60 395 79T445 134L512 99Q482 46 432 18T304 -10Q191 -10 127 59T62 250Q62 372 123 441T298 510Q368 510 419 479T496 395T522 276Q522 248 518 220ZM232
440T192 401T142 291H445Q437 361 399 400T298 440Q232 440 192 401Z" />
<glyph unicode="f" glyph-name="f" horiz-adv-x="393" d="M212 500H379V431H212V0H132V431H32V500H132V584Q132 653 174 694T296 735Q323 735 345 729T381 712L360 647Q336 662 303 662Q212 662 212 576V500Z" />
<glyph unicode="g" glyph-name="g" horiz-adv-x="549" d="M443 64T483 32T523 -55Q523 -103 490 -139T401 -195T276 -215Q162 -215 104 -179T46 -83Q46 -49 69 -23T134 14Q103 29 85 52T66 106Q66 143 86 167T141 204Q105 226 87 261T68 341Q68 390 94 428T167
488T273 510Q329 510 375 490Q403 592 516 592L534 522Q436 522 415 467Q445 444 461 412T478 341Q478 292 452 254T379 194T273 172Q229 172 196 181Q166 174 153 159T140 118Q140 92 158 78T206 64H372Q443 64 483 32ZM221 445T186 416T151 341Q151 295 186 266T273
237Q325 237 360 266T395 341Q395 387 360 416T273 445Q221 445 186 416ZM361 -148T405 -124T449 -64Q449 -35 427 -20T350 -5H216Q170 -5 145 -21T120 -67Q120 -105 162 -126T285 -148Q361 -148 405 -124Z" />
<glyph unicode="h" glyph-name="h" horiz-adv-x="619" d="M421 510T476 461T531 320V0H451V292Q451 370 418 405T328 440Q289 440 254 422T196 365T173 265V0H93V730H173V425Q198 468 240 489T336 510Q421 510 476 461Z" />
<glyph unicode="i" glyph-name="i" horiz-adv-x="266" d="M106 596T90 612T73 656Q73 683 89 699T133 716Q160 716 176 700T193 656Q193 629 177 613T133 596Q106 596 90 612ZM173 0H93V500H173V0Z" />
<glyph unicode="j" glyph-name="j" horiz-adv-x="266" d="M158 716T175 699T193 656Q193 631 176 614T133 596Q108 596 91 613T73 656Q73 681 90 698T133 716Q158 716 175 699ZM173 -51Q173 -136 128 -175T21 -215Q-9 -215 -35 -206T-79 -182L-62 -106Q-27 -137
20 -137Q93 -137 93 -43V500H173V-51Z" />
<glyph unicode="k" glyph-name="k" horiz-adv-x="567" d="M279 247L173 141V0H93V730H173V241L432 500H532L337 305L544 0H447L279 247Z" />
<glyph unicode="l" glyph-name="l" horiz-adv-x="306" d="M169 134Q169 96 180 82T223 67Q244 67 259 70T296 81L283 4Q250 -10 209 -10Q148 -10 119 23T89 124V730H169V134Z" />
<glyph unicode="m" glyph-name="m" horiz-adv-x="953" d="M724 510T767 490T838 426T865 320V0H785V312Q785 377 753 408T667 440Q627 440 594 421T540 364T519 274V0H439V312Q439 377 407 408T321 440Q285 440 251 422T195 364T173 267V0H93V500H163L168 422Q194
466 236 488T328 510Q383 510 429 485T500 412Q522 460 572 485T674 510Q724 510 767 490Z" />
<glyph unicode="n" glyph-name="n" horiz-adv-x="619" d="M421 510T476 461T531 320V0H451V292Q451 370 418 405T328 440Q288 440 253 423T196 366T173 266V0H93V500H163L168 422Q193 467 237 488T336 510Q421 510 476 461Z" />
<glyph unicode="o" glyph-name="o" horiz-adv-x="608" d="M417 510T481 441T546 250Q546 128 482 59T304 -10Q191 -10 127 59T62 250Q62 372 126 441T304 510Q417 510 481 441ZM228 441T185 390T142 250Q142 161 185 110T304 59Q380 59 423 110T466 250Q466 339
423 390T304 441Q228 441 185 390Z" />
<glyph unicode="p" glyph-name="p" horiz-adv-x="630" d="M444 510T505 441T567 250Q567 129 506 60T339 -10Q284 -10 241 14T173 78V-210H93V500H163L168 413Q190 457 235 483T339 510Q444 510 505 441ZM403 60T445 111T487 250Q487 337 445 388T330 440Q258
440 216 390T173 256V244Q173 160 215 110T330 60Q403 60 445 111Z" />
<glyph unicode="q" glyph-name="q" horiz-adv-x="631" d="M538 500V-210H458V78Q434 38 391 14T292 -10Q187 -10 126 59T64 250Q64 371 125 440T292 510Q350 510 395 484T463 413L468 500H538ZM373 60T415 110T458 244V256Q458 340 416 390T301 440Q228 440 186
389T144 250Q144 163 186 112T301 60Q373 60 415 110Z" />
<glyph unicode="r" glyph-name="r" horiz-adv-x="408" d="M365 510T384 500L368 422Q344 435 305 435Q273 435 243 417T193 361T173 270V0H93V500H158L169 418Q211 510 329 510Q365 510 384 500Z" />
<glyph unicode="s" glyph-name="s" horiz-adv-x="527" d="M191 -10T133 18T48 103L113 148Q130 104 172 82T271 60Q330 60 361 81T392 134Q392 163 363 180T261 211Q189 224 147 242T86 289T67 360Q67 401 91 435T160 489T264 510Q344 510 392 481T462 390L394
350Q378 398 346 419T264 440Q215 440 181 418T147 367Q147 334 176 316T282 285Q386 268 429 234T472 138Q472 95 447 62T374 9T263 -10Q191 -10 133 18Z" />
<glyph unicode="t" glyph-name="t" horiz-adv-x="419" d="M399 35Q349 -10 270 -10Q209 -10 171 23T131 124V431H31V500H131V620L211 642V500H396V431H211V138Q211 102 231 84T286 65Q334 65 371 102L399 35Z" />
<glyph unicode="u" glyph-name="u" horiz-adv-x="619" d="M526 500V0H456L451 76Q401 -10 272 -10Q191 -10 140 35T88 173V500H168V194Q168 121 198 91T286 60Q355 60 400 102T446 228V500H526Z" />
<glyph unicode="v" glyph-name="v" horiz-adv-x="520" d="M508 500L300 0H220L12 500H103L261 81L424 500H508Z" />
<glyph unicode="w" glyph-name="w" horiz-adv-x="856" d="M819 500L645 0H565L424 398L291 0H211L37 500H126L252 93L388 500H468L604 93L730 500H819Z" />
<glyph unicode="x" glyph-name="x" horiz-adv-x="533" d="M402 0L264 193L122 0H29L221 252L41 500H141L273 315L403 500H497L316 255L500 0H402Z" />
<glyph unicode="y" glyph-name="y" horiz-adv-x="535" d="M283 -84Q254 -156 218 -185T125 -215Q87 -215 62 -205T15 -173L43 -105Q72 -145 124 -145Q153 -145 175 -128T215 -64L241 1L32 500H123L248 174L279 85L315 184L432 500H518L283 -84Z" />
<glyph unicode="z" glyph-name="z" horiz-adv-x="534" d="M57 61L319 368L382 433L293 431H60V500H471V439L209 132L147 67L244 69H479V0H57V61Z" />
<glyph unicode="{" glyph-name="braceleft" horiz-adv-x="351" d="M215 -98T237 -111T310 -124L297 -189Q213 -189 177 -158T140 -65V142Q140 198 115 222T28 246V316Q89 316 114 340T140 420V627Q140 689 176 720T297 751L310 686Q260 686 238 673T215 633V413Q215
306 101 281Q215 256 215 149V-71Q215 -98 237 -111Z" />
<glyph unicode="|" glyph-name="bar" horiz-adv-x="243" d="M156 -168H87V730H156V-168Z" />
<glyph unicode="}" glyph-name="braceright" horiz-adv-x="351" d="M211 364T236 340T323 316V246Q262 246 237 222T211 142V-65Q211 -127 175 -158T54 -189L41 -124Q91 -124 113 -111T136 -71V149Q136 256 250 281Q136 306 136 413V633Q136 660 114 673T41 686L54
751Q138 751 174 720T211 627V420Q211 364 236 340Z" />
<glyph unicode="~" glyph-name="asciitilde" horiz-adv-x="540" d="M491 310T458 273T367 235Q334 235 310 246T256 277Q233 293 217 301T181 309Q132 309 119 235H43Q55 384 174 384Q206 384 230 374T285 342Q308 326 324 318T359 310Q408 310 421 384H497Q491
310 458 273Z" />
<glyph unicode="&#xa0;" glyph-name="uni00A0" horiz-adv-x="341" />
<glyph unicode="&#xa1;" glyph-name="exclamdown" horiz-adv-x="264" d="M103 380T85 398T67 445Q67 474 85 492T132 510Q161 510 179 492T197 445Q197 416 179 398T132 380Q103 380 85 398ZM90 126L102 292H162L174 126V-160H90V126Z" />
<glyph unicode="&#xa2;" glyph-name="cent" horiz-adv-x="567" d="M498 74T451 36T337 -9V-100H270V-8Q174 5 121 72T68 250Q68 360 121 427T270 508V600H337V509Q464 497 515 377L439 341Q411 428 337 442V57Q422 70 448 163L520 138Q498 74 451 36ZM143 169T176
120T270 58V442Q209 430 176 381T143 250Q143 169 176 120Z" />
<glyph unicode="&#xa3;" glyph-name="sterling" horiz-adv-x="626" d="M589 153Q589 73 554 32T453 -10Q412 -10 377 5T300 48Q247 -10 160 -10Q110 -10 80 14T50 76Q50 113 82 139T168 165Q228 165 285 132Q290 154 290 173Q290 199 281 223T251 278H86V343H201Q172
382 160 410T148 467Q148 525 175 571T250 644T359 670Q438 670 487 632T558 514L489 476Q474 536 443 566T355 597Q294 597 258 565T222 480Q222 452 234 425T280 350L285 343H473V278H325Q350 228 350 177Q350 138 333 98Q364 76 388 65T442 54Q485 54 504 77T524
153H589ZM222 44T255 77Q206 105 169 105Q123 105 123 76Q123 61 136 53T170 44Q222 44 255 77Z" />
<glyph unicode="&#xa4;" glyph-name="currency" horiz-adv-x="665" d="M543 259T506 204L595 117L544 66L454 153Q401 118 333 118Q263 118 208 156L121 66L70 117L158 207Q122 259 122 329Q122 398 159 453L70 540L121 591L210 503Q263 539 333 539Q405 539 457
502L544 591L595 540L508 451Q543 397 543 329Q543 259 506 204ZM389 190T426 229T463 329Q463 389 426 428T333 467Q276 467 239 428T202 329Q202 268 239 229T333 190Q389 190 426 229Z" />
<glyph unicode="&#xa5;" glyph-name="yen" horiz-adv-x="620" d="M408 297H538V237H345V162H538V107H345V0H275V107H83V162H275V237H83V297H212L256 293L34 660H127L261 417L309 318H311L359 418L493 660H586L364 293L408 297Z" />
<glyph unicode="&#xa6;" glyph-name="brokenbar" horiz-adv-x="255" d="M162 367H93V730H162V367ZM162 -168H93V195H162V-168Z" />
<glyph unicode="&#xa7;" glyph-name="section" horiz-adv-x="598" d="M570 226T545 192T478 134Q509 100 509 40Q509 -2 484 -36T411 -90T301 -110Q225 -110 173 -84T86 -9L145 40Q168 -1 205 -20T300 -40Q361 -40 395 -21T429 33Q429 63 413 82T359 114T253 136Q171
147 123 166T54 214T32 289Q32 334 57 368T124 426Q93 460 93 520Q93 562 119 596T194 650T308 670Q387 670 435 644T516 569L460 521Q434 561 398 580T306 600Q242 600 208 581T173 527Q173 497 189 478T243 446T349 424Q470 408 520 373T570 271Q570 226 545
192ZM490 211T490 264Q490 301 455 321T328 351Q240 362 189 382Q112 351 112 296Q112 259 147 240T274 209Q364 198 413 177Q490 211 490 264Z" />
<glyph unicode="&#xa8;" glyph-name="dieresis" horiz-adv-x="500" d="M182 696T197 681T213 639Q213 614 198 598T156 582Q131 582 115 598T99 639Q99 665 115 680T156 696Q182 696 197 681ZM376 696T391 681T407 639Q407 614 392 598T350 582Q325 582 309 598T293
639Q293 665 309 680T350 696Q376 696 391 681Z" />
<glyph unicode="&#xa9;" glyph-name="copyright" horiz-adv-x="820" d="M513 670T590 628T710 509T752 330Q752 228 710 151T591 32T410 -10Q307 -10 230 32T110 151T68 330Q68 432 110 509T229 628T410 670Q513 670 590 628ZM328 605T267 571T173 475T139 330Q139
247 172 185T267 89T410 55Q492 55 553 89T647 185T681 330Q681 413 648 475T553 571T410 605Q328 605 267 571ZM475 513T514 489T573 418L515 389Q490 453 416 453Q363 453 333 420T302 328Q302 269 332 236T416 203Q497 203 522 270L577 248Q558 198 517 171T417
143Q332 143 284 192T235 328Q235 414 283 463T417 513Q475 513 514 489Z" />
<glyph unicode="&#xaa;" glyph-name="ordfeminine" horiz-adv-x="382" d="M357 376T365 380L360 336Q340 327 321 327Q295 327 278 339T254 377Q237 354 204 341T129 327Q78 327 49 348T19 410Q19 452 50 477T149 515L242 531V545Q242 576 223 593T168 611Q134
611 111 597T74 550L25 579Q37 618 74 641T171 665Q239 665 274 635T310 547V407Q310 376 341 376Q357 376 365 380ZM183 381T212 399T242 448V486L171 472Q127 463 108 452T89 418Q89 398 103 390T147 381Q183 381 212 399ZM26 254H346V201H26V254Z" />
<glyph unicode="&#xab;" glyph-name="guillemotleft" horiz-adv-x="493" d="M136 265L264 69H177L51 265L177 461H264L136 265ZM313 265L441 69H354L228 265L354 461H441L313 265Z" />
<glyph unicode="&#xac;" glyph-name="logicalnot" horiz-adv-x="604" d="M545 354V131H465V279H59V354H545Z" />
<glyph unicode="&#xad;" glyph-name="uni00AD" horiz-adv-x="510" d="M420 220H90V303H420V220Z" />
<glyph unicode="&#xae;" glyph-name="registered" horiz-adv-x="820" d="M513 670T590 628T710 509T752 330Q752 228 710 151T591 32T410 -10Q307 -10 230 32T110 151T68 330Q68 432 110 509T229 628T410 670Q513 670 590 628ZM492 55T553 89T647 185T681 330Q681
413 648 475T553 571T410 605Q328 605 267 571T173 475T139 330Q139 247 172 185T267 89T410 55Q492 55 553 89ZM573 353T549 324T483 283L581 143H505L416 277H348V143H281V513H433Q496 513 534 481T573 395Q573 353 549 324ZM348 328H432Q506 328 506 395Q506
462 432 462H348V328Z" />
<glyph unicode="&#xaf;" glyph-name="overscore" horiz-adv-x="500" d="M424 596H76V663H424V596Z" />
<glyph unicode="&#xb0;" glyph-name="degree" horiz-adv-x="460" d="M181 340T143 361T82 420T60 505Q60 552 82 590T142 649T230 670Q279 670 317 649T378 590T400 505Q400 458 378 420T318 361T230 340Q181 340 143 361ZM274 405T302 433T330 505Q330 549 302
577T230 605Q187 605 159 577T130 505Q130 462 158 434T230 405Q274 405 302 433Z" />
<glyph unicode="&#xb1;" glyph-name="plusminus" horiz-adv-x="604" d="M545 434V359H340V154H265V359H59V434H265V640H340V434H545ZM59 75H545V0H59V75Z" />
<glyph unicode="&#xb2;" glyph-name="uni00B2" horiz-adv-x="365" d="M39 381Q105 427 131 448Q203 505 228 537T254 604Q254 637 234 657T177 677Q138 677 116 653T91 584L28 606Q32 666 73 700T180 735Q250 735 288 698T327 608Q327 564 292 520T182 423L130
388V387Q166 390 194 390H336V333H39V381Z" />
<glyph unicode="&#xb3;" glyph-name="uni00B3" horiz-adv-x="362" d="M246 735T282 706T319 627Q319 585 294 560T240 533V532Q274 531 301 507T328 440Q328 389 286 358T178 327Q55 327 24 423L91 453Q97 418 118 402T177 385Q212 385 233 402T255 450Q255 506
177 506H153V556H174Q209 556 227 571T245 616Q245 646 228 661T177 677Q146 677 127 662T101 617L36 640Q48 687 87 711T181 735Q246 735 282 706Z" />
<glyph unicode="&#xb4;" glyph-name="acute" horiz-adv-x="500" d="M371 750L273 583H208L284 750H371Z" />
<glyph unicode="&#xb5;" glyph-name="uni00B5" horiz-adv-x="611" d="M525 500V0H460L453 81Q401 -10 271 -10Q205 -10 167 35V-210H87V500H167V194Q167 121 197 91T285 60Q350 60 392 93T445 184V500H525Z" />
<glyph unicode="&#xb6;" glyph-name="paragraph" horiz-adv-x="637" d="M546 -100H476V593H347V-100H274V241Q166 242 104 298T41 450Q41 548 107 604T295 660H546V-100Z" />
<glyph unicode="&#xb7;" glyph-name="middot" horiz-adv-x="226" d="M142 420T160 402T178 355Q178 326 160 308T113 290Q84 290 66 308T48 355Q48 384 66 402T113 420Q142 420 160 402Z" />
<glyph unicode="&#xb8;" glyph-name="cedilla" horiz-adv-x="500" d="M247 29Q307 11 339 -27T372 -108Q372 -152 341 -183T256 -215Q185 -215 146 -180L176 -125Q189 -138 207 -146T245 -155Q269 -155 285 -139T302 -97Q302 -65 282 -44T203 3L247 29Z" />
<glyph unicode="&#xb9;" glyph-name="uni00B9" horiz-adv-x="242" d="M189 730V333H119V584Q119 604 121 656Q98 634 69 619T10 598V658Q39 664 75 685T127 730H189Z" />
<glyph unicode="&#xba;" glyph-name="ordmasculine" horiz-adv-x="360" d="M104 327T64 371T23 496Q23 576 63 620T180 665Q256 665 296 621T337 496Q337 416 297 372T180 327Q104 327 64 371ZM224 382T245 411T267 496Q267 551 245 581T180 611Q137 611 115 581T93
496Q93 441 114 412T180 382Q224 382 245 411ZM36 254H324V201H36V254Z" />
<glyph unicode="&#xbb;" glyph-name="guillemotright" horiz-adv-x="492" d="M138 461L264 265L138 69H51L179 265L51 461H138ZM315 461L441 265L315 69H228L356 265L228 461H315Z" />
<glyph unicode="&#xbc;" glyph-name="onequarter" horiz-adv-x="788" d="M189 665V268H119V519Q119 539 121 591Q98 569 69 554T10 533V593Q39 599 75 620T127 665H189ZM565 660H644L167 0H88L565 660ZM768 95H697V-4H638V95H439V132L621 393H697V145H768V95ZM638
145V259Q638 298 641 335H638Q620 302 606 281L507 145H638Z" />
<glyph unicode="&#xbd;" glyph-name="onehalf" horiz-adv-x="855" d="M189 665V268H119V519Q119 539 121 591Q98 569 69 554T10 533V593Q39 599 75 620T127 665H189ZM565 660H644L167 0H88L565 660ZM529 44Q595 90 621 111Q693 168 718 200T744 267Q744 300 724
320T667 340Q628 340 606 316T581 247L518 269Q522 329 563 363T670 398Q740 398 778 361T817 271Q817 227 782 183T672 86L620 51V50Q656 53 684 53H826V-4H529V44Z" />
<glyph unicode="&#xbe;" glyph-name="threequarters" horiz-adv-x="908" d="M246 670T282 641T319 562Q319 520 294 495T240 468V467Q274 466 301 442T328 375Q328 324 286 293T178 262Q55 262 24 358L91 388Q97 353 118 337T177 320Q212 320 233 337T255 385Q255
441 177 441H153V491H174Q209 491 227 506T245 551Q245 581 228 596T177 612Q146 612 127 597T101 552L36 575Q48 622 87 646T181 670Q246 670 282 641ZM685 660H764L287 0H208L685 660ZM888 95H817V-4H758V95H559V132L741 393H817V145H888V95ZM758 145V259Q758
298 761 335H758Q740 302 726 281L627 145H758Z" />
<glyph unicode="&#xbf;" glyph-name="questiondown" horiz-adv-x="537" d="M249 380T231 398T213 445Q213 474 231 492T278 510Q307 510 325 492T343 445Q343 416 325 398T278 380Q249 380 231 398ZM169 -170T108 -124T47 0Q47 83 99 129T235 185V292H318V142Q217
127 174 97T131 10Q131 -39 167 -67T272 -95Q338 -95 379 -59T429 41L500 0Q483 -78 421 -124T266 -170Q169 -170 108 -124Z" />
<glyph unicode="&#xc0;" glyph-name="Agrave" horiz-adv-x="660" d="M298 743L212 891H306L363 743H298ZM479 183H180L110 0H26L283 660H378L634 0H549L479 183ZM450 258L361 492L330 584H328L299 495L209 258H450Z" />
<glyph unicode="&#xc1;" glyph-name="Aacute" horiz-adv-x="660" d="M353 743H288L345 891H439L353 743ZM479 183H180L110 0H26L283 660H378L634 0H549L479 183ZM450 258L361 492L330 584H328L299 495L209 258H450Z" />
<glyph unicode="&#xc2;" glyph-name="Acircumflex" horiz-adv-x="660" d="M244 736H171L285 903H375L489 736H416L330 851L244 736ZM479 183H180L110 0H26L283 660H378L634 0H549L479 183ZM450 258L361 492L330 584H328L299 495L209 258H450Z" />
<glyph unicode="&#xc3;" glyph-name="Atilde" horiz-adv-x="660" d="M479 183H180L110 0H26L283 660H378L634 0H549L479 183ZM450 258L361 492L330 584H328L299 495L209 258H450ZM499 743T398 743Q369 743 350 753T309 784Q293 798 283 804T260 811Q239 811 228
794T211 742H148Q153 809 180 842T261 876Q289 876 308 865T350 834Q365 821 375 815T397 808Q418 808 429 825T447 877H510Q499 743 398 743Z" />
<glyph unicode="&#xc4;" glyph-name="Adieresis" horiz-adv-x="660" d="M479 183H180L110 0H26L283 660H378L634 0H549L479 183ZM450 258L361 492L330 584H328L299 495L209 258H450ZM259 856T274 841T290 799Q290 774 275 758T233 742Q208 742 192 758T176 799Q176
825 192 840T233 856Q259 856 274 841ZM453 856T468 841T484 799Q484 774 469 758T427 742Q402 742 386 758T370 799Q370 825 386 840T427 856Q453 856 468 841Z" />
<glyph unicode="&#xc5;" glyph-name="Aring" horiz-adv-x="660" d="M479 183H180L110 0H26L270 627Q239 641 222 669T205 734Q205 787 240 819T331 852Q387 852 421 820T456 734Q456 697 439 669T391 627L634 0H549L479 183ZM299 803T279 784T259 734Q259 704
279 685T330 665Q361 665 381 684T401 734Q401 764 381 783T330 803Q299 803 279 784ZM450 258L361 492L330 584H328L299 495L209 258H450Z" />
<glyph unicode="&#xc6;" glyph-name="AE" horiz-adv-x="954" d="M902 75V0H451V213H215L92 0H6L392 660H887V585H531V372H802V297H531V75H902ZM451 288V585H431L259 288H451Z" />
<glyph unicode="&#xc7;" glyph-name="Ccedilla" horiz-adv-x="686" d="M613 97T558 52T429 -5Q456 -26 470 -53T485 -108Q485 -152 454 -183T369 -215Q298 -215 259 -180L289 -125Q302 -138 320 -146T358 -155Q382 -155 398 -139T415 -97Q415 -68 399 -49T341
-9Q257 -2 196 41T101 159T68 330Q68 433 105 510T212 628T372 670Q467 670 531 631T628 516L549 479Q527 537 485 566T378 595Q310 595 259 564T180 472T152 330Q152 206 211 136T374 65Q441 65 490 99T560 199L640 169Q613 97 558 52Z" />
<glyph unicode="&#xc8;" glyph-name="Egrave" horiz-adv-x="638" d="M322 743L236 891H330L387 743H322ZM586 75V0H108V660H571V585H188V372H486V297H188V75H586Z" />
<glyph unicode="&#xc9;" glyph-name="Eacute" horiz-adv-x="638" d="M362 743H297L354 891H448L362 743ZM586 75V0H108V660H571V585H188V372H486V297H188V75H586Z" />
<glyph unicode="&#xca;" glyph-name="Ecircumflex" horiz-adv-x="638" d="M253 736H180L294 903H384L498 736H425L339 851L253 736ZM586 75V0H108V660H571V585H188V372H486V297H188V75H586Z" />
<glyph unicode="&#xcb;" glyph-name="Edieresis" horiz-adv-x="638" d="M586 75V0H108V660H571V585H188V372H486V297H188V75H586ZM268 856T283 841T299 799Q299 774 284 758T242 742Q217 742 201 758T185 799Q185 825 201 840T242 856Q268 856 283 841ZM462 856T477
841T493 799Q493 774 478 758T436 742Q411 742 395 758T379 799Q379 825 395 840T436 856Q462 856 477 841Z" />
<glyph unicode="&#xcc;" glyph-name="Igrave" horiz-adv-x="296" d="M181 743H116L30 891H124L181 743ZM188 0H108V660H188V0Z" />
<glyph unicode="&#xcd;" glyph-name="Iacute" horiz-adv-x="296" d="M257 891L171 743H106L163 891H257ZM188 0H108V660H188V0Z" />
<glyph unicode="&#xce;" glyph-name="Icircumflex" horiz-adv-x="296" d="M234 736L148 851L62 736H-11L103 903H193L307 736H234ZM188 0H108V660H188V0Z" />
<glyph unicode="&#xcf;" glyph-name="Idieresis" horiz-adv-x="296" d="M88 856T103 841T119 799Q119 774 104 758T62 742Q37 742 21 758T5 799Q5 825 21 840T62 856Q88 856 103 841ZM260 856T275 841T291 799Q291 774 276 758T234 742Q209 742 193 758T177 799Q177
825 193 840T234 856Q260 856 275 841ZM188 0H108V660H188V0Z" />
<glyph unicode="&#xd0;" glyph-name="Eth" horiz-adv-x="737" d="M493 660T581 574T669 330Q669 172 581 86T337 0H124V303H26V363H124V660H337Q493 660 581 574ZM458 75T521 142T585 330Q585 450 522 517T345 585H204V363H401V303H204V75H345Q458 75 521 142Z" />
<glyph unicode="&#xd1;" glyph-name="Ntilde" horiz-adv-x="734" d="M626 0H527L251 442L181 572H180L184 466V0H108V660H207L482 220L553 88H554L550 194V660H626V0ZM540 743T439 743Q410 743 391 753T350 784Q334 798 324 804T301 811Q280 811 269 794T252 742H189Q194
809 221 842T302 876Q330 876 349 865T391 834Q406 821 416 815T438 808Q459 808 470 825T488 877H551Q540 743 439 743Z" />
<glyph unicode="&#xd2;" glyph-name="Ograve" horiz-adv-x="748" d="M407 743H342L256 891H350L407 743ZM467 670T536 629T642 511T680 330Q680 226 643 150T536 32T374 -10Q281 -10 212 31T106 149T68 330Q68 434 105 510T212 628T374 670Q467 670 536 629ZM271
595T212 525T152 330Q152 206 211 136T374 65Q477 65 536 135T596 330Q596 454 537 524T374 595Q271 595 212 525Z" />
<glyph unicode="&#xd3;" glyph-name="Oacute" horiz-adv-x="748" d="M483 891L397 743H332L389 891H483ZM467 670T536 629T642 511T680 330Q680 226 643 150T536 32T374 -10Q281 -10 212 31T106 149T68 330Q68 434 105 510T212 628T374 670Q467 670 536 629ZM271
595T212 525T152 330Q152 206 211 136T374 65Q477 65 536 135T596 330Q596 454 537 524T374 595Q271 595 212 525Z" />
<glyph unicode="&#xd4;" glyph-name="Ocircumflex" horiz-adv-x="748" d="M460 736L374 851L288 736H215L329 903H419L533 736H460ZM467 670T536 629T642 511T680 330Q680 226 643 150T536 32T374 -10Q281 -10 212 31T106 149T68 330Q68 434 105 510T212 628T374
670Q467 670 536 629ZM271 595T212 525T152 330Q152 206 211 136T374 65Q477 65 536 135T596 330Q596 454 537 524T374 595Q271 595 212 525Z" />
<glyph unicode="&#xd5;" glyph-name="Otilde" horiz-adv-x="748" d="M467 670T536 629T642 511T680 330Q680 226 643 150T536 32T374 -10Q281 -10 212 31T106 149T68 330Q68 434 105 510T212 628T374 670Q467 670 536 629ZM271 595T212 525T152 330Q152 206 211
136T374 65Q477 65 536 135T596 330Q596 454 537 524T374 595Q271 595 212 525ZM543 743T442 743Q413 743 394 753T353 784Q337 798 327 804T304 811Q283 811 272 794T255 742H192Q197 809 224 842T305 876Q333 876 352 865T394 834Q409 821 419 815T441 808Q462
808 473 825T491 877H554Q543 743 442 743Z" />
<glyph unicode="&#xd6;" glyph-name="Odieresis" horiz-adv-x="748" d="M467 670T536 629T642 511T680 330Q680 226 643 150T536 32T374 -10Q281 -10 212 31T106 149T68 330Q68 434 105 510T212 628T374 670Q467 670 536 629ZM271 595T212 525T152 330Q152 206
211 136T374 65Q477 65 536 135T596 330Q596 454 537 524T374 595Q271 595 212 525ZM303 856T318 841T334 799Q334 774 319 758T277 742Q252 742 236 758T220 799Q220 825 236 840T277 856Q303 856 318 841ZM497 856T512 841T528 799Q528 774 513 758T471 742Q446
742 430 758T414 799Q414 825 430 840T471 856Q497 856 512 841Z" />
<glyph unicode="&#xd7;" glyph-name="multiply" horiz-adv-x="604" d="M355 318L522 150L469 97L302 265L134 97L81 150L249 318L81 485L134 538L302 371L469 538L522 485L355 318Z" />
<glyph unicode="&#xd8;" glyph-name="Oslash" horiz-adv-x="748" d="M635 539T657 475T680 330Q680 226 643 150T536 32T374 -10Q279 -10 208 33L159 -37H88L162 70Q116 115 92 181T68 330Q68 434 105 510T212 628T374 670Q474 670 547 622L590 683H661L592 584Q635
539 657 475ZM152 207T209 138L502 557Q449 595 374 595Q271 595 212 525T152 330Q152 207 209 138ZM477 65T536 135T596 330Q596 446 544 515L253 98Q304 65 374 65Q477 65 536 135Z" />
<glyph unicode="&#xd9;" glyph-name="Ugrave" horiz-adv-x="720" d="M393 743H328L242 891H336L393 743ZM619 246Q619 119 553 55T360 -10Q234 -10 168 55T101 246V660H181V266Q181 162 224 114T360 65Q452 65 495 113T539 266V660H619V246Z" />
<glyph unicode="&#xda;" glyph-name="Uacute" horiz-adv-x="720" d="M469 891L383 743H318L375 891H469ZM619 246Q619 119 553 55T360 -10Q234 -10 168 55T101 246V660H181V266Q181 162 224 114T360 65Q452 65 495 113T539 266V660H619V246Z" />
<glyph unicode="&#xdb;" glyph-name="Ucircumflex" horiz-adv-x="720" d="M446 736L360 851L274 736H201L315 903H405L519 736H446ZM619 246Q619 119 553 55T360 -10Q234 -10 168 55T101 246V660H181V266Q181 162 224 114T360 65Q452 65 495 113T539 266V660H619V246Z" />
<glyph unicode="&#xdc;" glyph-name="Udieresis" horiz-adv-x="720" d="M619 246Q619 119 553 55T360 -10Q234 -10 168 55T101 246V660H181V266Q181 162 224 114T360 65Q452 65 495 113T539 266V660H619V246ZM289 856T304 841T320 799Q320 774 305 758T263 742Q238
742 222 758T206 799Q206 825 222 840T263 856Q289 856 304 841ZM483 856T498 841T514 799Q514 774 499 758T457 742Q432 742 416 758T400 799Q400 825 416 840T457 856Q483 856 498 841Z" />
<glyph unicode="&#xdd;" glyph-name="Yacute" horiz-adv-x="572" d="M395 891L309 743H244L301 891H395ZM326 258V0H246V258L10 660H105L286 340L467 660H562L326 258Z" />
<glyph unicode="&#xde;" glyph-name="Thorn" horiz-adv-x="627" d="M449 542T511 490T573 337Q573 238 511 185T327 132H188V0H108V660H188V542H327Q449 542 511 490ZM413 207T451 239T489 337Q489 403 451 435T335 467H188V207H335Q413 207 451 239Z" />
<glyph unicode="&#xdf;" glyph-name="germandbls" horiz-adv-x="620" d="M438 391T480 363T541 290T560 197Q560 142 535 95T460 19T339 -10Q307 -10 278 -1T234 23L257 88Q288 63 343 63Q410 63 446 102T483 206Q483 275 439 311T309 347H270V422H309Q375 422
413 456T452 544Q452 660 318 660Q237 660 205 615T173 473V0H93V497Q93 609 146 672T326 735Q398 735 445 707T513 637T534 549Q534 513 517 477T464 417T373 393V391Q438 391 480 363Z" />
<glyph unicode="&#xe0;" glyph-name="agrave" horiz-adv-x="566" d="M523 58T543 63L538 0Q510 -10 478 -10Q439 -10 417 7T388 64Q365 29 321 10T227 -10Q153 -10 105 24T57 124Q57 181 107 222T252 280L385 302V330Q385 380 354 410T268 440Q218 440 182 416T125
345L66 388Q86 444 140 477T268 510Q357 510 411 467T465 340V94Q465 76 474 67T503 58Q523 58 543 63ZM294 60T339 90T385 168V237L273 216Q206 204 173 182T140 124Q140 93 164 77T231 60Q294 60 339 90ZM318 583H253L155 750H242L318 583Z" />
<glyph unicode="&#xe1;" glyph-name="aacute" horiz-adv-x="566" d="M523 58T543 63L538 0Q510 -10 478 -10Q439 -10 417 7T388 64Q365 29 321 10T227 -10Q153 -10 105 24T57 124Q57 181 107 222T252 280L385 302V330Q385 380 354 410T268 440Q218 440 182 416T125
345L66 388Q86 444 140 477T268 510Q357 510 411 467T465 340V94Q465 76 474 67T503 58Q523 58 543 63ZM294 60T339 90T385 168V237L273 216Q206 204 173 182T140 124Q140 93 164 77T231 60Q294 60 339 90ZM390 750L292 583H227L303 750H390Z" />
<glyph unicode="&#xe2;" glyph-name="acircumflex" horiz-adv-x="566" d="M523 58T543 63L538 0Q510 -10 478 -10Q439 -10 417 7T388 64Q365 29 321 10T227 -10Q153 -10 105 24T57 124Q57 181 107 222T252 280L385 302V330Q385 380 354 410T268 440Q218 440 182
416T125 345L66 388Q86 444 140 477T268 510Q357 510 411 467T465 340V94Q465 76 474 67T503 58Q523 58 543 63ZM294 60T339 90T385 168V237L273 216Q206 204 173 182T140 124Q140 93 164 77T231 60Q294 60 339 90ZM361 576L276 687L191 576H118L230 743H322L434
576H361Z" />
<glyph unicode="&#xe3;" glyph-name="atilde" horiz-adv-x="566" d="M523 58T543 63L538 0Q510 -10 478 -10Q439 -10 417 7T388 64Q365 29 321 10T227 -10Q153 -10 105 24T57 124Q57 181 107 222T252 280L385 302V330Q385 380 354 410T268 440Q218 440 182 416T125
345L66 388Q86 444 140 477T268 510Q357 510 411 467T465 340V94Q465 76 474 67T503 58Q523 58 543 63ZM294 60T339 90T385 168V237L273 216Q206 204 173 182T140 124Q140 93 164 77T231 60Q294 60 339 90ZM445 583T344 583Q315 583 296 593T255 624Q239 638 229
644T206 651Q185 651 174 634T157 582H94Q99 649 126 682T207 716Q235 716 254 705T296 674Q311 661 321 655T343 648Q364 648 375 665T393 717H456Q445 583 344 583Z" />
<glyph unicode="&#xe4;" glyph-name="adieresis" horiz-adv-x="566" d="M523 58T543 63L538 0Q510 -10 478 -10Q439 -10 417 7T388 64Q365 29 321 10T227 -10Q153 -10 105 24T57 124Q57 181 107 222T252 280L385 302V330Q385 380 354 410T268 440Q218 440 182
416T125 345L66 388Q86 444 140 477T268 510Q357 510 411 467T465 340V94Q465 76 474 67T503 58Q523 58 543 63ZM294 60T339 90T385 168V237L273 216Q206 204 173 182T140 124Q140 93 164 77T231 60Q294 60 339 90ZM205 696T220 681T236 639Q236 614 221 598T179
582Q154 582 138 598T122 639Q122 665 138 680T179 696Q205 696 220 681ZM399 696T414 681T430 639Q430 614 415 598T373 582Q348 582 332 598T316 639Q316 665 332 680T373 696Q399 696 414 681Z" />
<glyph unicode="&#xe5;" glyph-name="aring" horiz-adv-x="566" d="M523 58T543 63L538 0Q510 -10 478 -10Q439 -10 417 7T388 64Q365 29 321 10T227 -10Q153 -10 105 24T57 124Q57 181 107 222T252 280L385 302V330Q385 380 354 410T268 440Q218 440 182 416T125
345L66 388Q86 444 140 477T268 510Q357 510 411 467T465 340V94Q465 76 474 67T503 58Q523 58 543 63ZM294 60T339 90T385 168V237L273 216Q206 204 173 182T140 124Q140 93 164 77T231 60Q294 60 339 90ZM329 812T363 780T398 694Q398 641 364 608T273 575Q217
575 182 608T147 694Q147 747 182 779T273 812Q329 812 363 780ZM242 763T222 744T202 694Q202 664 222 645T273 625Q304 625 324 644T344 694Q344 724 324 743T273 763Q242 763 222 744Z" />
<glyph unicode="&#xe6;" glyph-name="ae" horiz-adv-x="884" d="M825 248T821 220H464Q472 145 513 103T617 60Q671 60 702 78T748 134L815 99Q784 44 739 17T617 -10Q548 -10 498 20T424 113Q404 53 349 22T220 -10Q146 -10 102 26T57 124Q57 182 105 221T243
273L392 292V330Q392 380 360 410T269 440Q219 440 182 416T125 345L66 388Q88 445 143 477T271 510Q330 510 373 484T438 408Q466 456 510 483T611 510Q715 510 770 444T825 276Q825 248 821 220ZM552 440T514 401T466 291H748Q741 362 707 401T611 440Q552 440
514 401ZM276 60T312 77T370 125T392 198V229L264 209Q198 198 169 179T140 124Q140 60 234 60Q276 60 312 77Z" />
<glyph unicode="&#xe7;" glyph-name="ccedilla" horiz-adv-x="564" d="M494 78T452 41T351 -6Q378 -27 392 -53T406 -108Q406 -152 375 -183T290 -215Q219 -215 180 -180L210 -125Q223 -138 241 -146T279 -155Q303 -155 319 -139T336 -97Q336 -68 320 -49T258
-7Q165 7 114 74T62 250Q62 372 126 441T304 510Q379 510 430 476T511 377L435 341Q403 440 302 440Q227 440 185 390T142 250Q142 161 184 111T302 60Q360 60 395 86T442 163L516 137Q494 78 452 41Z" />
<glyph unicode="&#xe8;" glyph-name="egrave" horiz-adv-x="581" d="M522 248T518 220H141Q148 144 191 102T304 60Q359 60 395 79T445 134L512 99Q482 46 432 18T304 -10Q191 -10 127 59T62 250Q62 372 123 441T298 510Q368 510 419 479T496 395T522 276Q522
248 518 220ZM232 440T192 401T142 291H445Q437 361 399 400T298 440Q232 440 192 401ZM337 583H272L174 750H261L337 583Z" />
<glyph unicode="&#xe9;" glyph-name="eacute" horiz-adv-x="581" d="M522 248T518 220H141Q148 144 191 102T304 60Q359 60 395 79T445 134L512 99Q482 46 432 18T304 -10Q191 -10 127 59T62 250Q62 372 123 441T298 510Q368 510 419 479T496 395T522 276Q522
248 518 220ZM232 440T192 401T142 291H445Q437 361 399 400T298 440Q232 440 192 401ZM409 750L311 583H246L322 750H409Z" />
<glyph unicode="&#xea;" glyph-name="ecircumflex" horiz-adv-x="581" d="M522 248T518 220H141Q148 144 191 102T304 60Q359 60 395 79T445 134L512 99Q482 46 432 18T304 -10Q191 -10 127 59T62 250Q62 372 123 441T298 510Q368 510 419 479T496 395T522 276Q522
248 518 220ZM232 440T192 401T142 291H445Q437 361 399 400T298 440Q232 440 192 401ZM380 576L295 687L210 576H137L249 743H341L453 576H380Z" />
<glyph unicode="&#xeb;" glyph-name="edieresis" horiz-adv-x="581" d="M522 248T518 220H141Q148 144 191 102T304 60Q359 60 395 79T445 134L512 99Q482 46 432 18T304 -10Q191 -10 127 59T62 250Q62 372 123 441T298 510Q368 510 419 479T496 395T522 276Q522
248 518 220ZM232 440T192 401T142 291H445Q437 361 399 400T298 440Q232 440 192 401ZM224 696T239 681T255 639Q255 614 240 598T198 582Q173 582 157 598T141 639Q141 665 157 680T198 696Q224 696 239 681ZM418 696T433 681T449 639Q449 614 434 598T392 582Q367
582 351 598T335 639Q335 665 351 680T392 696Q418 696 433 681Z" />
<glyph unicode="&#xec;" glyph-name="igrave" horiz-adv-x="266" d="M173 0H93V500H173V0ZM431 583H366L268 750H355L431 583Z" />
<glyph unicode="&#xed;" glyph-name="iacute" horiz-adv-x="266" d="M173 0H93V500H173V0ZM513 750L415 583H350L426 750H513Z" />
<glyph unicode="&#xee;" glyph-name="icircumflex" horiz-adv-x="266" d="M173 0H93V500H173V0ZM474 576L389 687L304 576H231L343 743H435L547 576H474Z" />
<glyph unicode="&#xef;" glyph-name="idieresis" horiz-adv-x="266" d="M28 582T12 598T-4 639Q-4 665 12 680T53 696Q79 696 95 681T111 639Q111 613 95 598T53 582Q28 582 12 598ZM187 582T171 597T155 639Q155 665 171 680T213 696Q239 696 254 681T270 639Q270
614 255 598T213 582Q187 582 171 597ZM173 0H93V500H173V0Z" />
<glyph unicode="&#xf0;" glyph-name="eth" horiz-adv-x="620" d="M546 485T546 288Q546 152 483 71T298 -10Q189 -10 126 56T62 238Q62 313 92 369T176 455T296 485Q409 485 465 415Q453 469 434 512T384 593L198 545L188 594L350 630Q293 684 205 730H316Q378
693 421 647L531 678L545 628L453 609Q546 485 546 288ZM353 60T390 84T448 149T468 238Q468 320 425 367T307 415Q231 415 188 368T145 238Q145 155 187 108T302 60Q353 60 390 84Z" />
<glyph unicode="&#xf1;" glyph-name="ntilde" horiz-adv-x="619" d="M421 510T476 461T531 320V0H451V292Q451 370 418 405T328 440Q288 440 253 423T196 366T173 266V0H93V500H163L168 422Q193 467 237 488T336 510Q421 510 476 461ZM487 583T386 583Q357 583
338 593T297 624Q281 638 271 644T248 651Q227 651 216 634T199 582H136Q141 649 168 682T249 716Q277 716 296 705T338 674Q353 661 363 655T385 648Q406 648 417 665T435 717H498Q487 583 386 583Z" />
<glyph unicode="&#xf2;" glyph-name="ograve" horiz-adv-x="608" d="M417 510T481 441T546 250Q546 128 482 59T304 -10Q191 -10 127 59T62 250Q62 372 126 441T304 510Q417 510 481 441ZM228 441T185 390T142 250Q142 161 185 110T304 59Q380 59 423 110T466
250Q466 339 423 390T304 441Q228 441 185 390ZM346 583H281L183 750H270L346 583Z" />
<glyph unicode="&#xf3;" glyph-name="oacute" horiz-adv-x="608" d="M417 510T481 441T546 250Q546 128 482 59T304 -10Q191 -10 127 59T62 250Q62 372 126 441T304 510Q417 510 481 441ZM228 441T185 390T142 250Q142 161 185 110T304 59Q380 59 423 110T466
250Q466 339 423 390T304 441Q228 441 185 390ZM418 750L320 583H255L331 750H418Z" />
<glyph unicode="&#xf4;" glyph-name="ocircumflex" horiz-adv-x="608" d="M417 510T481 441T546 250Q546 128 482 59T304 -10Q191 -10 127 59T62 250Q62 372 126 441T304 510Q417 510 481 441ZM228 441T185 390T142 250Q142 161 185 110T304 59Q380 59 423 110T466
250Q466 339 423 390T304 441Q228 441 185 390ZM389 576L304 687L219 576H146L258 743H350L462 576H389Z" />
<glyph unicode="&#xf5;" glyph-name="otilde" horiz-adv-x="608" d="M417 510T481 441T546 250Q546 128 482 59T304 -10Q191 -10 127 59T62 250Q62 372 126 441T304 510Q417 510 481 441ZM228 441T185 390T142 250Q142 161 185 110T304 59Q380 59 423 110T466
250Q466 339 423 390T304 441Q228 441 185 390ZM473 583T372 583Q343 583 324 593T283 624Q267 638 257 644T234 651Q213 651 202 634T185 582H122Q127 649 154 682T235 716Q263 716 282 705T324 674Q339 661 349 655T371 648Q392 648 403 665T421 717H484Q473
583 372 583Z" />
<glyph unicode="&#xf6;" glyph-name="odieresis" horiz-adv-x="608" d="M417 510T481 441T546 250Q546 128 482 59T304 -10Q191 -10 127 59T62 250Q62 372 126 441T304 510Q417 510 481 441ZM228 441T185 390T142 250Q142 161 185 110T304 59Q380 59 423 110T466
250Q466 339 423 390T304 441Q228 441 185 390ZM233 696T248 681T264 639Q264 614 249 598T207 582Q182 582 166 598T150 639Q150 665 166 680T207 696Q233 696 248 681ZM427 696T442 681T458 639Q458 614 443 598T401 582Q376 582 360 598T344 639Q344 665 360
680T401 696Q427 696 442 681Z" />
<glyph unicode="&#xf7;" glyph-name="divide" horiz-adv-x="604" d="M331 576T349 558T367 511Q367 482 349 464T302 446Q273 446 255 464T237 511Q237 540 255 558T302 576Q331 576 349 558ZM545 279H59V354H545V279ZM331 185T349 167T367 120Q367 91 349 73T302
55Q273 55 255 73T237 120Q237 149 255 167T302 185Q331 185 349 167Z" />
<glyph unicode="&#xf8;" glyph-name="oslash" horiz-adv-x="609" d="M387 510T445 472L484 523H551L485 437Q546 368 546 250Q546 128 482 59T304 -10Q228 -10 173 22L128 -37H61L130 55Q62 125 62 250Q62 372 126 441T304 510Q387 510 445 472ZM179 118L215 167L400
412Q360 441 304 441Q228 441 185 390T142 250Q142 170 178 118H179ZM380 59T423 110T466 250Q466 324 436 372H435L403 328L218 82Q253 59 304 59Q380 59 423 110Z" />
<glyph unicode="&#xf9;" glyph-name="ugrave" horiz-adv-x="619" d="M526 500V0H456L451 76Q401 -10 272 -10Q191 -10 140 35T88 173V500H168V194Q168 121 198 91T286 60Q355 60 400 102T446 228V500H526ZM350 583H285L187 750H274L350 583Z" />
<glyph unicode="&#xfa;" glyph-name="uacute" horiz-adv-x="619" d="M526 500V0H456L451 76Q401 -10 272 -10Q191 -10 140 35T88 173V500H168V194Q168 121 198 91T286 60Q355 60 400 102T446 228V500H526ZM422 750L324 583H259L335 750H422Z" />
<glyph unicode="&#xfb;" glyph-name="ucircumflex" horiz-adv-x="619" d="M526 500V0H456L451 76Q401 -10 272 -10Q191 -10 140 35T88 173V500H168V194Q168 121 198 91T286 60Q355 60 400 102T446 228V500H526ZM393 576L308 687L223 576H150L262 743H354L466 576H393Z" />
<glyph unicode="&#xfc;" glyph-name="udieresis" horiz-adv-x="619" d="M526 500V0H456L451 76Q401 -10 272 -10Q191 -10 140 35T88 173V500H168V194Q168 121 198 91T286 60Q355 60 400 102T446 228V500H526ZM237 696T252 681T268 639Q268 614 253 598T211 582Q186
582 170 598T154 639Q154 665 170 680T211 696Q237 696 252 681ZM431 696T446 681T462 639Q462 614 447 598T405 582Q380 582 364 598T348 639Q348 665 364 680T405 696Q431 696 446 681Z" />
<glyph unicode="&#xfd;" glyph-name="yacute" horiz-adv-x="535" d="M283 -84Q254 -156 218 -185T125 -215Q87 -215 62 -205T15 -173L43 -105Q72 -145 124 -145Q153 -145 175 -128T215 -64L241 1L32 500H123L248 174L279 85L315 184L432 500H518L283 -84ZM387
750L289 583H224L300 750H387Z" />
<glyph unicode="&#xfe;" glyph-name="thorn" horiz-adv-x="630" d="M444 510T505 441T567 250Q567 129 506 60T339 -10Q284 -10 242 11T173 69V-210H93V730H173V431Q199 467 241 488T339 510Q444 510 505 441ZM403 60T445 111T487 250Q487 337 445 388T330 440Q258
440 216 390T173 256V244Q173 160 215 110T330 60Q403 60 445 111Z" />
<glyph unicode="&#xff;" glyph-name="ydieresis" horiz-adv-x="535" d="M283 -84Q254 -156 218 -185T125 -215Q87 -215 62 -205T15 -173L43 -105Q72 -145 124 -145Q153 -145 175 -128T215 -64L241 1L32 500H123L248 174L279 85L315 184L432 500H518L283 -84ZM202
696T217 681T233 639Q233 614 218 598T176 582Q151 582 135 598T119 639Q119 665 135 680T176 696Q202 696 217 681ZM396 696T411 681T427 639Q427 614 412 598T370 582Q345 582 329 598T313 639Q313 665 329 680T370 696Q396 696 411 681Z" />
<glyph unicode="&#x2013;" glyph-name="endash" horiz-adv-x="664" d="M582 224H82V299H582V224Z" />
<glyph unicode="&#x2014;" glyph-name="emdash" horiz-adv-x="1014" d="M932 224H82V299H932V224Z" />
<glyph unicode="&#x2018;" glyph-name="quoteleft" horiz-adv-x="255" d="M93 434T73 461T53 531Q53 584 80 629T162 700L204 661Q165 648 139 620T106 559L110 557Q119 564 138 564Q159 564 176 548T193 501Q193 474 174 454T128 434Q93 434 73 461Z" />
<glyph unicode="&#x2019;" glyph-name="quoteright" horiz-adv-x="255" d="M166 700T186 673T206 603Q206 550 179 505T97 434L55 473Q94 486 120 514T153 575L149 577Q140 570 121 570Q100 570 83 586T66 633Q66 660 85 680T131 700Q166 700 186 673Z" />
<glyph unicode="&#x201a;" glyph-name="quotesinglbase" horiz-adv-x="265" d="M422 120T442 93T462 23Q462 -30 435 -75T353 -146L311 -107Q350 -94 376 -66T409 -5L405 -3Q396 -10 377 -10Q356 -10 339 6T322 53Q322 80 341 100T387 120Q422 120 442 93Z" />
<glyph unicode="&#x201c;" glyph-name="quotedblleft" horiz-adv-x="443" d="M93 434T73 461T53 531Q53 584 80 629T162 700L204 661Q165 648 139 620T106 559L110 557Q119 564 138 564Q159 564 176 548T193 501Q193 474 174 454T128 434Q93 434 73 461ZM281 434T261
461T241 531Q241 584 268 629T350 700L392 661Q353 648 327 620T294 559L298 557Q307 564 326 564Q347 564 364 548T381 501Q381 474 362 454T316 434Q281 434 261 461Z" />
<glyph unicode="&#x201d;" glyph-name="quotedblright" horiz-adv-x="443" d="M166 700T186 673T206 603Q206 550 179 505T97 434L55 473Q94 486 120 514T153 575L149 577Q140 570 121 570Q100 570 83 586T66 633Q66 660 85 680T131 700Q166 700 186 673ZM354
700T374 673T394 603Q394 550 367 505T285 434L243 473Q282 486 308 514T341 575L337 577Q328 570 309 570Q288 570 271 586T254 633Q254 660 273 680T319 700Q354 700 374 673Z" />
<glyph unicode="&#x201e;" glyph-name="quotedblbase" horiz-adv-x="453" d="M422 120T442 93T462 23Q462 -30 435 -75T353 -146L311 -107Q350 -94 376 -66T409 -5L405 -3Q396 -10 377 -10Q356 -10 339 6T322 53Q322 80 341 100T387 120Q422 120 442 93ZM354 120T374
93T394 23Q394 -30 367 -75T285 -146L243 -107Q282 -94 308 -66T341 -5L337 -3Q328 -10 309 -10Q288 -10 271 6T254 53Q254 80 273 100T319 120Q354 120 374 93Z" />
<glyph unicode="&#x2022;" glyph-name="bullet" horiz-adv-x="430" d="M270 458T305 424T340 337Q340 284 305 250T215 216Q161 216 126 250T90 337Q90 389 125 423T215 458Q270 458 305 424Z" />
<glyph unicode="&#x2039;" glyph-name="guilsinglleft" horiz-adv-x="316" d="M136 265L264 69H177L51 265L177 461H264L136 265Z" />
<glyph unicode="&#x203a;" glyph-name="guilsinglright" horiz-adv-x="316" d="M139 461L265 265L139 69H52L180 265L52 461H139Z" />
</font>
</defs>
</svg>
